(Reggae) [CD] VA - Top Of The Pops - Reggae (3CD) - 2018, FLAC (tracks+.cue), lossless 

Цитировать
Top Of The Pops - Reggae (3CD)
Жанр: Reggae
Носитель: CD
Страна-производитель диска (релиза): UK
Год издания: 2018
Издатель (лейбл): UMC
Номер по каталогу: UMC 5383369
Аудиокодек: FLAC (*.flac)
Тип рипа: tracks+.cue
Битрейт аудио: lossless
Продолжительность: 02:47:31
Источник (релизер): PsPBuRnOuT
Наличие сканов в содержимом раздачи: да

CD1

Треклист:
01. UB40 - Red Red Wine (3:03)
02. Musical Youth - Pass The Dutchie (3:21)
03. Aswad - Don't Turn Around (3:19)
04. Boris Gardiner - I Want To Wake Up With You (2:57)
05. Johnny Nash - Tears On My Pillow (3:13)
06. Maxi Priest - Wild World (3:30)
07. 10CC - Dreadlock Holiday (4:27)
08. Bad Manners - Lip Up Fatty (2:46)
09. Sophia George - Girlie Girlie (3:02)
10. Amazulu - Too Good To Be Forgotten (3:03)
11. Musical Youth - Never Gonna Give You Up (3:01)
12. UB40 Feat. Chrissie Hynde - Breakfast In Bed (3:16)
13. Aswad - Give A Little Love (3:51)
14. Beats International - Dub Be Good To Me (3:58)
15. Grace Jones - Pull Up To The Bumper (3:41)
Duration: 00:50:29

Отчёт EAC

Exact Audio Copy V1.3 from 2. September 2016
EAC extraction logfile from 6. July 2018, 16:07
Various / Top Of The Pops - Reggae - Disc 1
Used drive : HL-DT-STDVDRAM GSA-E40N Adapter: 1 ID: 1
Read mode : SecureUtilize accurate stream : YesDefeat audio cache : NoMake use of C2 pointers : Yes
Read offset correction : 667Overread into Lead-In and Lead-Out : NoFill up missing offset samples with silence : YesDelete leading and trailing silent blocks : NoNull samples used in CRC calculations : YesUsed interface : Native Win32 interface for Win NT & 2000Gap handling : Not detected, thus appended to previous track
Used output format : User Defined EncoderSelected bitrate : 896 kBit/sQuality : HighAdd ID3 tag : NoCommand line compressor : C:\Program Files (x86)\Exact Audio Copy\FLAC\FLAC.EXEAdditional command line options : -6 -V -T "ARTIST=%artist%" -T "TITLE=%title%" -T "ALBUM=%albumtitle%" -T "DATE=%year%" -T "TRACKNUMBER=%tracknr%" -T "GENRE=%genre%" -T "COMMENT=%comment%" -T "BAND=%albuminterpret%" -T "ALBUMARTIST=%albuminterpret%" -T "COMPOSER=%composer%" %haslyrics%--tag-from-file=LYRICS="%lyricsfile%"%haslyrics% -T "DISCNUMBER=%cdnumber%" -T "TOTALDISCS=%totalcds%" -T "TOTALTRACKS=%numtracks%" %hascover%--picture="%coverfile%"%hascover% %source% -o %dest%
TOC of the extracted CD
Track | Start | Length | Start sector | End sector --------------------------------------------------------- 1 | 0:00.00 | 3:02.54 | 0 | 13703 2 | 3:02.54 | 3:21.05 | 13704 | 28783 3 | 6:23.59 | 3:18.69 | 28784 | 43702 4 | 9:42.53 | 2:57.21 | 43703 | 56998 5 | 12:39.74 | 3:12.68 | 56999 | 71466 6 | 15:52.67 | 3:30.24 | 71467 | 87240 7 | 19:23.16 | 4:27.33 | 87241 | 107298 8 | 23:50.49 | 2:46.14 | 107299 | 119762 9 | 26:36.63 | 3:02.07 | 119763 | 133419 10 | 29:38.70 | 3:02.53 | 133420 | 147122 11 | 32:41.48 | 3:01.25 | 147123 | 160722 12 | 35:42.73 | 3:16.37 | 160723 | 175459 13 | 38:59.35 | 3:50.39 | 175460 | 192748 14 | 42:49.74 | 3:57.68 | 192749 | 210591 15 | 46:47.67 | 3:40.57 | 210592 | 227148
Track 1
Filename A:\PsPBuRnOuT's MUSIC\TOP OF THE POPS\Top Of The Pops - Reggae\TOTP - Reggae - Disc 1\01.UB40 - Red Red Wine.wav
Peak level 96.6 % Extraction speed 18.1 X Track quality 100.0 % Copy CRC 34064646 Track not present in AccurateRip database Copy OK
Track 2
Filename A:\PsPBuRnOuT's MUSIC\TOP OF THE POPS\Top Of The Pops - Reggae\TOTP - Reggae - Disc 1\02.Musical Youth - Pass The Dutchie.wav
Peak level 96.2 % Extraction speed 17.0 X Track quality 99.8 % Copy CRC DC6BC18F Track not present in AccurateRip database Copy OK
Track 3
Filename A:\PsPBuRnOuT's MUSIC\TOP OF THE POPS\Top Of The Pops - Reggae\TOTP - Reggae - Disc 1\03.Aswad - Don't Turn Around.wav
Peak level 96.2 % Extraction speed 21.1 X Track quality 100.0 % Copy CRC E119ADCC Track not present in AccurateRip database Copy OK
Track 4
Filename A:\PsPBuRnOuT's MUSIC\TOP OF THE POPS\Top Of The Pops - Reggae\TOTP - Reggae - Disc 1\04.Boris Gardiner - I Want To Wake Up With You.wav
Peak level 87.9 % Extraction speed 23.3 X Track quality 100.0 % Copy CRC DE3B6D9A Track not present in AccurateRip database Copy OK
Track 5
Filename A:\PsPBuRnOuT's MUSIC\TOP OF THE POPS\Top Of The Pops - Reggae\TOTP - Reggae - Disc 1\05.Johnny Nash - Tears On My Pillow.wav
Peak level 96.2 % Extraction speed 24.1 X Track quality 100.0 % Copy CRC 4D98F862 Track not present in AccurateRip database Copy OK
Track 6
Filename A:\PsPBuRnOuT's MUSIC\TOP OF THE POPS\Top Of The Pops - Reggae\TOTP - Reggae - Disc 1\06.Maxi Priest - Wild World.wav
Peak level 87.1 % Extraction speed 21.7 X Track quality 99.8 % Copy CRC 99192305 Track not present in AccurateRip database Copy OK
Track 7
Filename A:\PsPBuRnOuT's MUSIC\TOP OF THE POPS\Top Of The Pops - Reggae\TOTP - Reggae - Disc 1\07.10CC - Dreadlock Holiday.wav
Peak level 96.2 % Extraction speed 26.4 X Track quality 100.0 % Copy CRC EFEDAC29 Track not present in AccurateRip database Copy OK
Track 8
Filename A:\PsPBuRnOuT's MUSIC\TOP OF THE POPS\Top Of The Pops - Reggae\TOTP - Reggae - Disc 1\08.Bad Manners - Lip Up Fatty.wav
Peak level 100.0 % Extraction speed 23.0 X Track quality 100.0 % Copy CRC FA462BB5 Track not present in AccurateRip database Copy OK
Track 9
Filename A:\PsPBuRnOuT's MUSIC\TOP OF THE POPS\Top Of The Pops - Reggae\TOTP - Reggae - Disc 1\09.Sophia George - Girlie Girlie.wav
Peak level 81.5 % Extraction speed 29.1 X Track quality 100.0 % Copy CRC 27F8128F Track not present in AccurateRip database Copy OK
Track 10
Filename A:\PsPBuRnOuT's MUSIC\TOP OF THE POPS\Top Of The Pops - Reggae\TOTP - Reggae - Disc 1\10.Amazulu - Too Good To Be Forgotten.wav
Peak level 96.2 % Extraction speed 30.7 X Track quality 100.0 % Copy CRC 8E28FF44 Track not present in AccurateRip database Copy OK
Track 11
Filename A:\PsPBuRnOuT's MUSIC\TOP OF THE POPS\Top Of The Pops - Reggae\TOTP - Reggae - Disc 1\11.Musical Youth - Never Gonna Give You Up.wav
Peak level 96.2 % Extraction speed 24.9 X Track quality 99.8 % Copy CRC B47B7BF8 Track not present in AccurateRip database Copy OK
Track 12
Filename A:\PsPBuRnOuT's MUSIC\TOP OF THE POPS\Top Of The Pops - Reggae\TOTP - Reggae - Disc 1\12.UB40 Feat. Chrissie Hynde - Breakfast In Bed.wav
Peak level 88.4 % Extraction speed 26.4 X Track quality 100.0 % Copy CRC CACB4775 Track not present in AccurateRip database Copy OK
Track 13
Filename A:\PsPBuRnOuT's MUSIC\TOP OF THE POPS\Top Of The Pops - Reggae\TOTP - Reggae - Disc 1\13.Aswad - Give A Little Love.wav
Peak level 100.0 % Extraction speed 32.8 X Track quality 100.0 % Copy CRC 315332A4 Track not present in AccurateRip database Copy OK
Track 14
Filename A:\PsPBuRnOuT's MUSIC\TOP OF THE POPS\Top Of The Pops - Reggae\TOTP - Reggae - Disc 1\14.Beats International - Dub Be Good To Me.wav
Peak level 89.3 % Extraction speed 29.3 X Track quality 100.0 % Copy CRC B10C9B5F Track not present in AccurateRip database Copy OK
Track 15
Filename A:\PsPBuRnOuT's MUSIC\TOP OF THE POPS\Top Of The Pops - Reggae\TOTP - Reggae - Disc 1\15.Grace Jones - Pull Up To The Bumper.wav
Peak level 100.0 % Extraction speed 30.1 X Track quality 100.0 % Copy CRC 4C81339D Track not present in AccurateRip database Copy OK
None of the tracks are present in the AccurateRip database
No errors occurred
End of status report
---- CUETools DB Plugin V2.1.6
[CTDB TOCID: 1j5kuonmIz36OlM_nn8cKIqYYOc-] disk not present in databaseSubmit result: 1j5kuonmIz36OlM_nn8cKIqYYOc- has been uploaded

Содержание индексной карты (.CUE)

REM GENRE ReggaeREM DATE 2018REM DISCID D80BD40FREM DISCNUMBER 01REM TOTALDISCS 03REM COMMENT "Exact Audio Copy V1.3"PERFORMER "Various"TITLE "Top Of The Pops - Reggae - Disc 1"FILE "01.UB40 - Red Red Wine.flac" WAVE  TRACK 01 AUDIO    PERFORMER "UB40"    TITLE "Red Red Wine"    INDEX 01 00:00:00FILE "02.Musical Youth - Pass The Dutchie.flac" WAVE  TRACK 02 AUDIO    PERFORMER "Musical Youth"    TITLE "Pass The Dutchie"    INDEX 01 00:00:00FILE "03.Aswad - Don't Turn Around.flac" WAVE  TRACK 03 AUDIO    PERFORMER "Aswad"    TITLE "Don't Turn Around"    INDEX 01 00:00:00FILE "04.Boris Gardiner - I Want To Wake Up With You.flac" WAVE  TRACK 04 AUDIO    PERFORMER "Boris Gardiner"    TITLE "I Want To Wake Up With You"    INDEX 01 00:00:00FILE "05.Johnny Nash - Tears On My Pillow.flac" WAVE  TRACK 05 AUDIO    PERFORMER "Johnny Nash"    TITLE "Tears On My Pillow"    INDEX 01 00:00:00FILE "06.Maxi Priest - Wild World.flac" WAVE  TRACK 06 AUDIO    PERFORMER "Maxi Priest"    TITLE "Wild World"    INDEX 01 00:00:00FILE "07.10CC - Dreadlock Holiday.flac" WAVE  TRACK 07 AUDIO    PERFORMER "10CC"    TITLE "Dreadlock Holiday"    INDEX 01 00:00:00FILE "08.Bad Manners - Lip Up Fatty.flac" WAVE  TRACK 08 AUDIO    PERFORMER "Bad Manners"    TITLE "Lip Up Fatty"    INDEX 01 00:00:00FILE "09.Sophia George - Girlie Girlie.flac" WAVE  TRACK 09 AUDIO    PERFORMER "Sophia George"    TITLE "Girlie Girlie"    INDEX 01 00:00:00FILE "10.Amazulu - Too Good To Be Forgotten.flac" WAVE  TRACK 10 AUDIO    PERFORMER "Amazulu"    TITLE "Too Good To Be Forgotten"    INDEX 01 00:00:00FILE "11.Musical Youth - Never Gonna Give You Up.flac" WAVE  TRACK 11 AUDIO    PERFORMER "Musical Youth"    TITLE "Never Gonna Give You Up"    INDEX 01 00:00:00FILE "12.UB40 Feat. Chrissie Hynde - Breakfast In Bed.flac" WAVE  TRACK 12 AUDIO    PERFORMER "UB40 Feat. Chrissie Hynde"    TITLE "Breakfast In Bed"    INDEX 01 00:00:00FILE "13.Aswad - Give A Little Love.flac" WAVE  TRACK 13 AUDIO    PERFORMER "Aswad"    TITLE "Give A Little Love"    INDEX 01 00:00:00FILE "14.Beats International - Dub Be Good To Me.flac" WAVE  TRACK 14 AUDIO    PERFORMER "Beats International"    TITLE "Dub Be Good To Me"    INDEX 01 00:00:00FILE "15.Grace Jones - Pull Up To The Bumper.flac" WAVE  TRACK 15 AUDIO    PERFORMER "Grace Jones"    TITLE "Pull Up To The Bumper"    INDEX 01 00:00:00

CD2

Треклист:
01. Desmond Dekker & The Aces - Israelites (2:36)
02. Althea & Donna - Uptown Top Ranking (3:12)
03. Dawn Penn - You Don't Love Me (No, No, No) (3:17)
04. Third World - Now That We've Found Love (3:50)
05. Sugar Minott - Good Thing Going (3:33)
06. Aswad - 54-46 (Was My Number) (3:09)
07. Matumbi - Point Of View (3:18)
08. Steel Pulse - Prodigal Son (3:34)
09. Black Uhuru - What Is Life (5:42)
10. Grace Jones - My Jamaican Guy (6:00)
11. Gregory Isaacs - Night Nurse (3:39)
12. UB40 - Food For Thought (4:09)
13. Junior Murvin - Police & Thieves (4:11)
14. Max Romeo & The Upsetters - War Ina Babylon (4:50)
15. Johnny Nash - Stir It Up (3:04)
16. Third World - Cool Meditation (3:06)
Duration: 01:01:08

Отчёт EAC

Exact Audio Copy V1.3 from 2. September 2016
EAC extraction logfile from 6. July 2018, 16:44
Various / Top Of The Pops - Reggae - Disc 2
Used drive : HL-DT-STDVDRAM GSA-E40N Adapter: 1 ID: 1
Read mode : SecureUtilize accurate stream : YesDefeat audio cache : NoMake use of C2 pointers : Yes
Read offset correction : 667Overread into Lead-In and Lead-Out : NoFill up missing offset samples with silence : YesDelete leading and trailing silent blocks : NoNull samples used in CRC calculations : YesUsed interface : Native Win32 interface for Win NT & 2000Gap handling : Not detected, thus appended to previous track
Used output format : User Defined EncoderSelected bitrate : 896 kBit/sQuality : HighAdd ID3 tag : NoCommand line compressor : C:\Program Files (x86)\Exact Audio Copy\FLAC\FLAC.EXEAdditional command line options : -6 -V -T "ARTIST=%artist%" -T "TITLE=%title%" -T "ALBUM=%albumtitle%" -T "DATE=%year%" -T "TRACKNUMBER=%tracknr%" -T "GENRE=%genre%" -T "COMMENT=%comment%" -T "BAND=%albuminterpret%" -T "ALBUMARTIST=%albuminterpret%" -T "COMPOSER=%composer%" %haslyrics%--tag-from-file=LYRICS="%lyricsfile%"%haslyrics% -T "DISCNUMBER=%cdnumber%" -T "TOTALDISCS=%totalcds%" -T "TOTALTRACKS=%numtracks%" %hascover%--picture="%coverfile%"%hascover% %source% -o %dest%
TOC of the extracted CD
Track | Start | Length | Start sector | End sector --------------------------------------------------------- 1 | 0:00.00 | 2:35.56 | 0 | 11680 2 | 2:35.56 | 3:11.66 | 11681 | 26071 3 | 5:47.47 | 3:16.45 | 26072 | 40816 4 | 9:04.17 | 3:50.08 | 40817 | 58074 5 | 12:54.25 | 3:33.13 | 58075 | 74062 6 | 16:27.38 | 3:09.02 | 74063 | 88239 7 | 19:36.40 | 3:17.42 | 88240 | 103056 8 | 22:54.07 | 3:33.48 | 103057 | 119079 9 | 26:27.55 | 5:41.70 | 119080 | 144724 10 | 32:09.50 | 6:00.26 | 144725 | 171750 11 | 38:10.01 | 3:38.55 | 171751 | 188155 12 | 41:48.56 | 4:09.21 | 188156 | 206851 13 | 45:58.02 | 4:10.52 | 206852 | 225653 14 | 50:08.54 | 4:50.00 | 225654 | 247403 15 | 54:58.54 | 3:03.57 | 247404 | 261185 16 | 58:02.36 | 3:05.45 | 261186 | 275105
Track 1
Filename A:\PsPBuRnOuT's MUSIC\TOP OF THE POPS\Top Of The Pops - Reggae\TOTP - Reggae - Disc 2\01.Desmond Dekker & The Aces - Israelites.wav
Peak level 100.0 % Extraction speed 10.0 X Track quality 99.7 % Copy CRC 0070FAFD Track not present in AccurateRip database Copy OK
Track 2
Filename A:\PsPBuRnOuT's MUSIC\TOP OF THE POPS\Top Of The Pops - Reggae\TOTP - Reggae - Disc 2\02.Althea & Donna - Uptown Top Ranking.wav
Peak level 96.2 % Extraction speed 12.1 X Track quality 99.7 % Copy CRC D7599EDA Track not present in AccurateRip database Copy OK
Track 3
Filename A:\PsPBuRnOuT's MUSIC\TOP OF THE POPS\Top Of The Pops - Reggae\TOTP - Reggae - Disc 2\03.Dawn Penn - You Don't Love Me (No, No, No).wav
Peak level 100.0 % Extraction speed 17.8 X Track quality 99.8 % Copy CRC BF61280A Track not present in AccurateRip database Copy OK
Track 4
Filename A:\PsPBuRnOuT's MUSIC\TOP OF THE POPS\Top Of The Pops - Reggae\TOTP - Reggae - Disc 2\04.Third World - Now That We've Found Love.wav
Peak level 93.3 % Extraction speed 22.0 X Track quality 100.0 % Copy CRC 63BC5B0C Track not present in AccurateRip database Copy OK
Track 5
Filename A:\PsPBuRnOuT's MUSIC\TOP OF THE POPS\Top Of The Pops - Reggae\TOTP - Reggae - Disc 2\05.Sugar Minott - Good Thing Going.wav
Peak level 100.0 % Extraction speed 18.7 X Track quality 99.9 % Copy CRC C2789348 Track not present in AccurateRip database Copy OK
Track 6
Filename A:\PsPBuRnOuT's MUSIC\TOP OF THE POPS\Top Of The Pops - Reggae\TOTP - Reggae - Disc 2\06.Aswad - 54-46 (Was My Number).wav
Peak level 99.2 % Extraction speed 24.9 X Track quality 100.0 % Copy CRC 07468578 Track not present in AccurateRip database Copy OK
Track 7
Filename A:\PsPBuRnOuT's MUSIC\TOP OF THE POPS\Top Of The Pops - Reggae\TOTP - Reggae - Disc 2\07.Matumbi - Point Of View.wav
Peak level 100.0 % Extraction speed 21.6 X Track quality 99.8 % Copy CRC A557FE3F Track not present in AccurateRip database Copy OK
Track 8
Filename A:\PsPBuRnOuT's MUSIC\TOP OF THE POPS\Top Of The Pops - Reggae\TOTP - Reggae - Disc 2\08.Steel Pulse - Prodigal Son.wav
Peak level 93.3 % Extraction speed 25.1 X Track quality 100.0 % Copy CRC F082C20E Track not present in AccurateRip database Copy OK
Track 9
Filename A:\PsPBuRnOuT's MUSIC\TOP OF THE POPS\Top Of The Pops - Reggae\TOTP - Reggae - Disc 2\09.Black Uhuru - What Is Life.wav
Peak level 81.0 % Extraction speed 25.9 X Track quality 99.9 % Copy CRC 8E44C518 Track not present in AccurateRip database Copy OK
Track 10
Filename A:\PsPBuRnOuT's MUSIC\TOP OF THE POPS\Top Of The Pops - Reggae\TOTP - Reggae - Disc 2\10.Grace Jones - My Jamaican Guy.wav
Peak level 97.9 % Extraction speed 28.2 X Track quality 100.0 % Copy CRC 8B41C45E Track not present in AccurateRip database Copy OK
Track 11
Filename A:\PsPBuRnOuT's MUSIC\TOP OF THE POPS\Top Of The Pops - Reggae\TOTP - Reggae - Disc 2\11.Gregory Isaacs - Night Nurse.wav
Peak level 97.7 % Extraction speed 32.3 X Track quality 100.0 % Copy CRC B4A004AC Track not present in AccurateRip database Copy OK
Track 12
Filename A:\PsPBuRnOuT's MUSIC\TOP OF THE POPS\Top Of The Pops - Reggae\TOTP - Reggae - Disc 2\12.UB40 - Food For Thought.wav
Peak level 99.8 % Extraction speed 33.9 X Track quality 100.0 % Copy CRC 222683A5 Track not present in AccurateRip database Copy OK
Track 13
Filename A:\PsPBuRnOuT's MUSIC\TOP OF THE POPS\Top Of The Pops - Reggae\TOTP - Reggae - Disc 2\13.Junior Murvin - Police & Thieves.wav
Peak level 96.2 % Extraction speed 28.6 X Track quality 100.0 % Copy CRC E06AD321 Track not present in AccurateRip database Copy OK
Track 14
Filename A:\PsPBuRnOuT's MUSIC\TOP OF THE POPS\Top Of The Pops - Reggae\TOTP - Reggae - Disc 2\14.Max Romeo & The Upsetters - War Ina Babylon.wav
Peak level 96.2 % Extraction speed 29.3 X Track quality 99.9 % Copy CRC 37D0ADD4 Track not present in AccurateRip database Copy OK
Track 15
Filename A:\PsPBuRnOuT's MUSIC\TOP OF THE POPS\Top Of The Pops - Reggae\TOTP - Reggae - Disc 2\15.Johnny Nash - Stir It Up.wav
Peak level 96.2 % Extraction speed 30.0 X Track quality 100.0 % Copy CRC E09556D2 Track not present in AccurateRip database Copy OK
Track 16
Filename A:\PsPBuRnOuT's MUSIC\TOP OF THE POPS\Top Of The Pops - Reggae\TOTP - Reggae - Disc 2\16.Third World - Cool Meditation.wav
Peak level 96.2 % Extraction speed 29.6 X Track quality 100.0 % Copy CRC 8012905A Track not present in AccurateRip database Copy OK
None of the tracks are present in the AccurateRip database
No errors occurred
End of status report
---- CUETools DB Plugin V2.1.6
[CTDB TOCID: WfNcZzfm1HUEO3qAnCGy5djIy7U-] disk not present in databaseSubmit result: WfNcZzfm1HUEO3qAnCGy5djIy7U- has been uploaded

Содержание индексной карты (.CUE)

REM GENRE ReggaeREM DATE 2018REM DISCID E60E5410REM DISCNUMBER 02REM TOTALDISCS 03REM COMMENT "Exact Audio Copy V1.3"PERFORMER "Various"TITLE "Top Of The Pops - Reggae - Disc 2"FILE "01.Desmond Dekker & The Aces - Israelites.flac" WAVE  TRACK 01 AUDIO    PERFORMER "Desmond Dekker & The Aces"    TITLE "Israelites"    INDEX 01 00:00:00FILE "02.Althea & Donna - Uptown Top Ranking.flac" WAVE  TRACK 02 AUDIO    PERFORMER "Althea & Donna"    TITLE "Uptown Top Ranking"    INDEX 01 00:00:00FILE "03.Dawn Penn - You Don't Love Me (No, No, No).flac" WAVE  TRACK 03 AUDIO    PERFORMER "Dawn Penn"    TITLE "You Don't Love Me (No, No, No)"    INDEX 01 00:00:00FILE "04.Third World - Now That We've Found Love.flac" WAVE  TRACK 04 AUDIO    PERFORMER "Third World"    TITLE "Now That We've Found Love"    INDEX 01 00:00:00FILE "05.Sugar Minott - Good Thing Going.flac" WAVE  TRACK 05 AUDIO    PERFORMER "Sugar Minott"    TITLE "Good Thing Going"    INDEX 01 00:00:00FILE "06.Aswad - 54-46 (Was My Number).flac" WAVE  TRACK 06 AUDIO    PERFORMER "Aswad"    TITLE "54-46 (Was My Number)"    INDEX 01 00:00:00FILE "07.Matumbi - Point Of View.flac" WAVE  TRACK 07 AUDIO    PERFORMER "Matumbi"    TITLE "Point Of View"    INDEX 01 00:00:00FILE "08.Steel Pulse - Prodigal Son.flac" WAVE  TRACK 08 AUDIO    PERFORMER "Steel Pulse"    TITLE "Prodigal Son"    INDEX 01 00:00:00FILE "09.Black Uhuru - What Is Life.flac" WAVE  TRACK 09 AUDIO    PERFORMER "Black Uhuru"    TITLE "What Is Life"    INDEX 01 00:00:00FILE "10.Grace Jones - My Jamaican Guy.flac" WAVE  TRACK 10 AUDIO    PERFORMER "Grace Jones"    TITLE "My Jamaican Guy"    INDEX 01 00:00:00FILE "11.Gregory Isaacs - Night Nurse.flac" WAVE  TRACK 11 AUDIO    PERFORMER "Gregory Isaacs"    TITLE "Night Nurse"    INDEX 01 00:00:00FILE "12.UB40 - Food For Thought.flac" WAVE  TRACK 12 AUDIO    PERFORMER "UB40"    TITLE "Food For Thought"    INDEX 01 00:00:00FILE "13.Junior Murvin - Police & Thieves.flac" WAVE  TRACK 13 AUDIO    PERFORMER "Junior Murvin"    TITLE "Police & Thieves"    INDEX 01 00:00:00FILE "14.Max Romeo & The Upsetters - War Ina Babylon.flac" WAVE  TRACK 14 AUDIO    PERFORMER "Max Romeo & The Upsetters"    TITLE "War Ina Babylon"    INDEX 01 00:00:00FILE "15.Johnny Nash - Stir It Up.flac" WAVE  TRACK 15 AUDIO    PERFORMER "Johnny Nash"    TITLE "Stir It Up"    INDEX 01 00:00:00FILE "16.Third World - Cool Meditation.flac" WAVE  TRACK 16 AUDIO    PERFORMER "Third World"    TITLE "Cool Meditation"    INDEX 01 00:00:00

CD3

Треклист:
01. Chaka Demus & Pliers - Tease Me (4:00)
02. Shaggy - Oh Carolina (3:05)
03. Shabba Ranks - Mr. Loverman (3:37)
04. Ini Kamoze - Here Comes The Hotstepper (4:09)
05. Diana King - Shy Guy (3:39)
06. Chaka Demus & Pliers - Murder She Wrote (4:06)
07. Finley Quaye - Even After All (3:55)
08. The Fugees - No Woman No Cry (4:20)
09. UB40 - Maybe Tomorrow (3:20)
10. Yazz & Aswad - How Long (3:54)
11. Lindy Layton - Silly Games (4:11)
12. Maxi Priest - Strollin' On (3:20)
13. UB40 - Kingston Town (3:49)
14. Finley Quaye - Your Love Gets Sweeter (3:12)
15. Afroman - Because I Got High (3:20)
Duration: 00:55:56

Отчёт EAC

Exact Audio Copy V1.3 from 2. September 2016
EAC extraction logfile from 6. July 2018, 17:39
Various / Top Of The Pops - Reggae - Disc 3
Used drive : HL-DT-STDVDRAM GSA-E40N Adapter: 1 ID: 1
Read mode : SecureUtilize accurate stream : YesDefeat audio cache : NoMake use of C2 pointers : Yes
Read offset correction : 667Overread into Lead-In and Lead-Out : NoFill up missing offset samples with silence : YesDelete leading and trailing silent blocks : NoNull samples used in CRC calculations : YesUsed interface : Native Win32 interface for Win NT & 2000Gap handling : Not detected, thus appended to previous track
Used output format : User Defined EncoderSelected bitrate : 896 kBit/sQuality : HighAdd ID3 tag : NoCommand line compressor : C:\Program Files (x86)\Exact Audio Copy\FLAC\FLAC.EXEAdditional command line options : -6 -V -T "ARTIST=%artist%" -T "TITLE=%title%" -T "ALBUM=%albumtitle%" -T "DATE=%year%" -T "TRACKNUMBER=%tracknr%" -T "GENRE=%genre%" -T "COMMENT=%comment%" -T "BAND=%albuminterpret%" -T "ALBUMARTIST=%albuminterpret%" -T "COMPOSER=%composer%" %haslyrics%--tag-from-file=LYRICS="%lyricsfile%"%haslyrics% -T "DISCNUMBER=%cdnumber%" -T "TOTALDISCS=%totalcds%" -T "TOTALTRACKS=%numtracks%" %hascover%--picture="%coverfile%"%hascover% %source% -o %dest%
TOC of the extracted CD
Track | Start | Length | Start sector | End sector --------------------------------------------------------- 1 | 0:00.00 | 4:00.23 | 0 | 18022 2 | 4:00.23 | 3:05.05 | 18023 | 31902 3 | 7:05.28 | 3:37.28 | 31903 | 48205 4 | 10:42.56 | 4:09.06 | 48206 | 66886 5 | 14:51.62 | 3:38.66 | 66887 | 83302 6 | 18:30.53 | 4:06.14 | 83303 | 101766 7 | 22:36.67 | 3:54.40 | 101767 | 119356 8 | 26:31.32 | 4:19.38 | 119357 | 138819 9 | 30:50.70 | 3:19.59 | 138820 | 153803 10 | 34:10.54 | 3:53.48 | 153804 | 171326 11 | 38:04.27 | 4:10.56 | 171327 | 190132 12 | 42:15.08 | 3:19.52 | 190133 | 205109 13 | 45:34.60 | 3:48.50 | 205110 | 222259 14 | 49:23.35 | 3:12.30 | 222260 | 236689 15 | 52:35.65 | 3:19.73 | 236690 | 251687
Track 1
Filename A:\PsPBuRnOuT's MUSIC\TOP OF THE POPS\Top Of The Pops - Reggae\TOTP - Reggae - Disc 3\01.Chaka Demus & Pliers - Tease Me.wav
Peak level 96.2 % Extraction speed 18.5 X Track quality 100.0 % Copy CRC 0C898B96 Track not present in AccurateRip database Copy OK
Track 2
Filename A:\PsPBuRnOuT's MUSIC\TOP OF THE POPS\Top Of The Pops - Reggae\TOTP - Reggae - Disc 3\02.Shaggy - Oh Carolina.wav
Peak level 79.9 % Extraction speed 17.8 X Track quality 100.0 % Copy CRC FA15A494 Track not present in AccurateRip database Copy OK
Track 3
Filename A:\PsPBuRnOuT's MUSIC\TOP OF THE POPS\Top Of The Pops - Reggae\TOTP - Reggae - Disc 3\03.Shabba Ranks - Mr. Loverman.wav
Peak level 100.0 % Extraction speed 21.5 X Track quality 100.0 % Copy CRC 727255C8 Track not present in AccurateRip database Copy OK
Track 4
Filename A:\PsPBuRnOuT's MUSIC\TOP OF THE POPS\Top Of The Pops - Reggae\TOTP - Reggae - Disc 3\04.Ini Kamoze - Here Comes The Hotstepper.wav
Peak level 100.0 % Extraction speed 21.5 X Track quality 100.0 % Copy CRC F47EB9DF Track not present in AccurateRip database Copy OK
Track 5
Filename A:\PsPBuRnOuT's MUSIC\TOP OF THE POPS\Top Of The Pops - Reggae\TOTP - Reggae - Disc 3\05.Diana King - Shy Guy.wav
Peak level 96.2 % Extraction speed 22.1 X Track quality 100.0 % Copy CRC 3B6DB0AE Track not present in AccurateRip database Copy OK
Track 6
Filename A:\PsPBuRnOuT's MUSIC\TOP OF THE POPS\Top Of The Pops - Reggae\TOTP - Reggae - Disc 3\06.Chaka Demus & Pliers - Murder She Wrote.wav
Peak level 96.2 % Extraction speed 23.6 X Track quality 100.0 % Copy CRC EBCFF34F Track not present in AccurateRip database Copy OK
Track 7
Filename A:\PsPBuRnOuT's MUSIC\TOP OF THE POPS\Top Of The Pops - Reggae\TOTP - Reggae - Disc 3\07.Finley Quaye - Even After All.wav
Peak level 100.0 % Extraction speed 23.8 X Track quality 99.9 % Copy CRC 832A9162 Track not present in AccurateRip database Copy OK
Track 8
Filename A:\PsPBuRnOuT's MUSIC\TOP OF THE POPS\Top Of The Pops - Reggae\TOTP - Reggae - Disc 3\08.The Fugees - No Woman No Cry.wav
Peak level 96.2 % Extraction speed 28.6 X Track quality 100.0 % Copy CRC 726547E3 Track not present in AccurateRip database Copy OK
Track 9
Filename A:\PsPBuRnOuT's MUSIC\TOP OF THE POPS\Top Of The Pops - Reggae\TOTP - Reggae - Disc 3\09.UB40 - Maybe Tomorrow.wav
Peak level 96.2 % Extraction speed 25.8 X Track quality 99.8 % Copy CRC 1CA02956 Track not present in AccurateRip database Copy OK
Track 10
Filename A:\PsPBuRnOuT's MUSIC\TOP OF THE POPS\Top Of The Pops - Reggae\TOTP - Reggae - Disc 3\10.Yazz & Aswad - How Long.wav
Peak level 99.9 % Extraction speed 29.0 X Track quality 100.0 % Copy CRC F0E4B5AD Track not present in AccurateRip database Copy OK
Track 11
Filename A:\PsPBuRnOuT's MUSIC\TOP OF THE POPS\Top Of The Pops - Reggae\TOTP - Reggae - Disc 3\11.Lindy Layton - Silly Games.wav
Peak level 75.7 % Extraction speed 28.0 X Track quality 100.0 % Copy CRC D9E51697 Track not present in AccurateRip database Copy OK
Track 12
Filename A:\PsPBuRnOuT's MUSIC\TOP OF THE POPS\Top Of The Pops - Reggae\TOTP - Reggae - Disc 3\12.Maxi Priest - Strollin' On.wav
Peak level 96.2 % Extraction speed 28.3 X Track quality 100.0 % Copy CRC A2E6CA2B Track not present in AccurateRip database Copy OK
Track 13
Filename A:\PsPBuRnOuT's MUSIC\TOP OF THE POPS\Top Of The Pops - Reggae\TOTP - Reggae - Disc 3\13.UB40 - Kingston Town.wav
Peak level 96.6 % Extraction speed 28.7 X Track quality 100.0 % Copy CRC EBDBD652 Track not present in AccurateRip database Copy OK
Track 14
Filename A:\PsPBuRnOuT's MUSIC\TOP OF THE POPS\Top Of The Pops - Reggae\TOTP - Reggae - Disc 3\14.Finley Quaye - Your Love Gets Sweeter.wav
Peak level 96.5 % Extraction speed 29.1 X Track quality 100.0 % Copy CRC B7CC5762 Track not present in AccurateRip database Copy OK
Track 15
Filename A:\PsPBuRnOuT's MUSIC\TOP OF THE POPS\Top Of The Pops - Reggae\TOTP - Reggae - Disc 3\15.Afroman - Because I Got High.wav
Peak level 98.8 % Extraction speed 30.7 X Track quality 100.0 % Copy CRC A5CE21FF Track not present in AccurateRip database Copy OK
None of the tracks are present in the AccurateRip database
No errors occurred
End of status report
---- CUETools DB Plugin V2.1.6
[CTDB TOCID: hxFE0.Kh7.88gaAxmewpY.yqA9Q-] disk not present in databaseSubmit result: hxFE0.Kh7.88gaAxmewpY.yqA9Q- has been uploaded

Содержание индексной карты (.CUE)

REM GENRE ReggaeREM DATE 2018REM DISCID D50D1B0FREM DISCNUMBER 03REM TOTALDISCS 03REM COMMENT "Exact Audio Copy V1.3"PERFORMER "Various"TITLE "Top Of The Pops - Reggae - Disc 3"FILE "01.Chaka Demus & Pliers - Tease Me.flac" WAVE  TRACK 01 AUDIO    PERFORMER "Chaka Demus & Pliers"    TITLE "Tease Me"    INDEX 01 00:00:00FILE "02.Shaggy - Oh Carolina.flac" WAVE  TRACK 02 AUDIO    PERFORMER "Shaggy"    TITLE "Oh Carolina"    INDEX 01 00:00:00FILE "03.Shabba Ranks - Mr. Loverman.flac" WAVE  TRACK 03 AUDIO    PERFORMER "Shabba Ranks"    TITLE "Mr. Loverman"    INDEX 01 00:00:00FILE "04.Ini Kamoze - Here Comes The Hotstepper.flac" WAVE  TRACK 04 AUDIO    PERFORMER "Ini Kamoze"    TITLE "Here Comes The Hotstepper"    INDEX 01 00:00:00FILE "05.Diana King - Shy Guy.flac" WAVE  TRACK 05 AUDIO    PERFORMER "Diana King"    TITLE "Shy Guy"    INDEX 01 00:00:00FILE "06.Chaka Demus & Pliers - Murder She Wrote.flac" WAVE  TRACK 06 AUDIO    PERFORMER "Chaka Demus & Pliers"    TITLE "Murder She Wrote"    INDEX 01 00:00:00FILE "07.Finley Quaye - Even After All.flac" WAVE  TRACK 07 AUDIO    PERFORMER "Finley Quaye"    TITLE "Even After All"    INDEX 01 00:00:00FILE "08.The Fugees - No Woman No Cry.flac" WAVE  TRACK 08 AUDIO    PERFORMER "The Fugees"    TITLE "No Woman No Cry"    INDEX 01 00:00:00FILE "09.UB40 - Maybe Tomorrow.flac" WAVE  TRACK 09 AUDIO    PERFORMER "UB40"    TITLE "Maybe Tomorrow"    INDEX 01 00:00:00FILE "10.Yazz & Aswad - How Long.flac" WAVE  TRACK 10 AUDIO    PERFORMER "Yazz & Aswad"    TITLE "How Long"    INDEX 01 00:00:00FILE "11.Lindy Layton - Silly Games.flac" WAVE  TRACK 11 AUDIO    PERFORMER "Lindy Layton"    TITLE "Silly Games"    INDEX 01 00:00:00FILE "12.Maxi Priest - Strollin' On.flac" WAVE  TRACK 12 AUDIO    PERFORMER "Maxi Priest"    TITLE "Strollin' On"    INDEX 01 00:00:00FILE "13.UB40 - Kingston Town.flac" WAVE  TRACK 13 AUDIO    PERFORMER "UB40"    TITLE "Kingston Town"    INDEX 01 00:00:00FILE "14.Finley Quaye - Your Love Gets Sweeter.flac" WAVE  TRACK 14 AUDIO    PERFORMER "Finley Quaye"    TITLE "Your Love Gets Sweeter"    INDEX 01 00:00:00FILE "15.Afroman - Because I Got High.flac" WAVE  TRACK 15 AUDIO    PERFORMER "Afroman"    TITLE "Because I Got High"    INDEX 01 00:00:00
Вы не можете начинать темы
Вы не можете отвечать на сообщения
Вы не можете редактировать свои сообщения
Вы не можете удалять свои сообщения
Вы не можете голосовать в опросах
Вы не можете прикреплять файлы к сообщениям
Вы можете скачивать файлы
!ВНИМАНИЕ!

Сайт не предоставляет электронные версии произведений, а занимается лишь коллекционированием и каталогизацией ссылок, присылаемых и публикуемых на форуме нашими читателями. Если вы являетесь правообладателем какого-либо представленного материала и не желаете, чтобы ссылка на него находилась в нашем каталоге, свяжитесь с нами, и мы незамедлительно удалим ее. Файлы для обмена на трекере предоставлены пользователями сайта, и администрация не несет ответственности за их содержание. Просьба не заливать файлы, защищенные авторскими правами, а также файлы нелегального содержания!

Искали программы, игры, дополнения, музыка mp3, аниме, аудио книги, журналы? Добро пожаловать на свободный торрент трекер Torrents, у нас можно скачать бесплатно, без смс и регистрации и прочих ограничений лучшие, отборные сборки программ, игр. Скачать торрентом не составит труда даже не опытному пользователю. Раздачи ежедневно обновляются, только лучшие и качественные раздачи, подробные описания и скриншоты. Огромная коллекция программ для работы со звуком, графикой, дизайном, а так же множество плагинов и инструментов к ним с подробной инструкцией и рекомендациями. Прошивки для навигаторов, карты. Разнообразные игры, для Windows, Linux. В коллекцие есть и старые игры любых жанров, Rpg, Action, Shooter, strategy Множество дополнений, модификаций, сценариев для популярных игр в жанре экш, рпг, гонки, стратегии, логические игры. Множество аддонов и сценариев для Microsoft Flight Simulator Большая коллекция книг, учебников. Если нет возможности купить печатное издание - смело скачивайте цифровую версию книги или, быть может, журнала. Не любите читать - можно загрузить бесплатно аудикнигу. Для веб дизайнеров и программистов так же найдется множество специализированного софта, таких как: редакторы с подсветкой, среды программирования, компоненты, системы управления базами данных, разнообразные скрипты и шаблоны. Не так давно у нас появился материал для автолюбителей и владельцев мото - оригинальные и неоригинальные каталоги запчастей, книги и журналы по ремонту и обслуживанию, видеоуроки, статьи по чип тюнингу, прошивкам. Процедура получения контента элементарная, достаточно просто скачать торрент файл и добавить его в загрузку в вашем торрент клиенте. Если у вас нет специального торрент клиента, вы можете его скачать у нас.